Pearl Jam Bootleg from 2013-10-15, DCU Center, Worcester, Massachusetts, USA

View show information at pearljam.com

Setlist

  1. Release
  2. Long Road
  3. Elderly Woman Behind The Counter In A Small Town
  4. Lightning Bolt
  5. Mind Your Manners
  6. Hail, Hail
  7. Sirens
  8. Even Flow
  9. Nothing As it Seems
  10. Swallowed Whole
  11. Red Mosquito
  12. Whipping
  13. Corduroy
  14. Infallible
  15. Got Some
  16. Save You
  17. Leash
  18. Let The Records Play
  19. Do The Evolution
  20. Better Man
  21. Man Of The Hour
  22. Yellow Moon
  23. Fatal
  24. Just Breathe
  25. Spin The Black Circle
  26. Unthought Known
  27. Porch
  28. Last Kiss
  29. Crazy Mary
  30. Alive
  31. Sonic Reducer
  32. Indifference

Comment, review, or request?

Your email address will not be published. Required fields are marked *

Original info file

Pearl Jam
DCU Center
Worcester, Massachusetts
10/15/2013

Source: Schoeps CCM4V'S(din)>Lunatec V2>Benchmark AD2K>
Sound Devices 722 (24/48)
BOS/DFC/KFC/ZFC/AARP Section 222, Row H, Seat 6, 6' High
DSP: Sound Devices 722>Sound Forge 9.0>CD Wave>flac(16)
Recorded By: Z-Man
Seeded By: Z-Man

Disc I

01 Intro >
02 Release >
03 Long Road
04 Elderly Woman Behind The Counter In A Small Town
05 Lightning Bolt
06 Mind Your Manners
07 Hail Hail
08 Eddie Banter
09 Sirens
10 Even Flow
11 Nothing As It Seems
12 Swallowed Whole

Disc II

01 Red Mosquito
02 Whipping
03 Corduroy
04 Eddie Banter
05 Infallible
06 Got Some
07 Save You
08 Eddie Banter
09 Leash
10 Let The Records Play
11 Do The Evolution
12 Eddie Banter On The Red Sox
13 Better Man

Disc III

Encore :
01 Eddie Banter
02 *Man Of The Hour
03 Eddie Banter
04 *Yellow Moon
05 *Fatal
06 *Just Breathe
07 Spin The Black Circle
08 Unthought Known
09 Porch
Encore II:
10 Eddie Banter
11 Last Kiss
12 Eddie Banter On Itunes
13 Crazy Mary
14 Alive
15 Sonic Reducer
16 Indifference

pearljam2013-10-15d01t01.flac:64694a0680f14de28d8b0251e65188b8
pearljam2013-10-15d01t02.flac:9547edff726a4d23a861da49a50f372c
pearljam2013-10-15d01t03.flac:42be0c67c930f90b3696d9b219a9b85e
pearljam2013-10-15d01t04.flac:9247160c88a46d18aa436bdd10e4ef16
pearljam2013-10-15d01t05.flac:24f1230f63037218899f7dada3c2c2cc
pearljam2013-10-15d01t06.flac:2488ac1f18e5e1cff5fc2d8efba56da4
pearljam2013-10-15d01t07.flac:ab2994ac7cbec534f45434d8a335d474
pearljam2013-10-15d01t08.flac:3c7b9cd594cefa9ff44b7c80915108a6
pearljam2013-10-15d01t09.flac:7500ec08db2f1b96eb150ebe516489f0
pearljam2013-10-15d01t10.flac:37340d007e16de99ea900ea07a60e47f
pearljam2013-10-15d01t11.flac:68e4af1b5e7768a117e9653024487858
pearljam2013-10-15d01t12.flac:00969e0ef5312316e9e5ec0849afbe0d
pearljam2013-10-15d02t01.flac:7b0e03433dbbc78d7abb504c0ba84a4a
pearljam2013-10-15d02t02.flac:703beb5a7839e790bd3280236b189aa7
pearljam2013-10-15d02t03.flac:252c10b3316dbd167ca3ca973166dced
pearljam2013-10-15d02t04.flac:ed93776c9a452cee438bdaf3af008b55
pearljam2013-10-15d02t05.flac:03fbc704db00e420c45476e4a777748e
pearljam2013-10-15d02t06.flac:6cda0870283a0be5d198c929ea167dd0
pearljam2013-10-15d02t07.flac:f99b7d7a14bb9d072b51d54a95703307
pearljam2013-10-15d02t08.flac:d38eba17a49f24c5ad1a8ca410fed8ca
pearljam2013-10-15d02t09.flac:689510001c1df7482b00de9e78883636
pearljam2013-10-15d02t10.flac:e186061c54823838d94bcd8f5a2153a9
pearljam2013-10-15d02t11.flac:c80c1df11a235261dfb3e71eb06135db
pearljam2013-10-15d02t12.flac:8af8e8d8e5f8cd9359f79987b961477c
pearljam2013-10-15d02t13.flac:aace7d63576f2c1fc17420d008c2f1de
pearljam2013-10-15d03t01.flac:fde47e0422d1ceeb4cf8b207ccfca7df
pearljam2013-10-15d03t02.flac:35fb374f495a6a5228edb0aa184e1533
pearljam2013-10-15d03t03.flac:b874b66739ae92173fd17d425d431ac6
pearljam2013-10-15d03t04.flac:17f4e98d616fff6f8a38eb7a339bb533
pearljam2013-10-15d03t05.flac:f408a6179b3d8d70ff9799f520256e4a
pearljam2013-10-15d03t06.flac:5f4935c4a41eb5244e9692c60e3928c7
pearljam2013-10-15d03t07.flac:f1e70df15d13ee5a97b4d86d2ba7bb25
pearljam2013-10-15d03t08.flac:66423828ba8cd52a8d2abca994087250
pearljam2013-10-15d03t09.flac:30c84a7041b52f439f30953eda2afbf2
pearljam2013-10-15d03t10.flac:809f50e9f291f019ac354a0d35c84c17
pearljam2013-10-15d03t11.flac:c6e4298fb55d50f6c5b0978dda593fac
pearljam2013-10-15d03t12.flac:4c326c04861a76b1d8c7f6ab23ad47e0
pearljam2013-10-15d03t13.flac:63a1434b5e0fb46726dcf8f8206bf8a2
pearljam2013-10-15d03t14.flac:6afc304b5f23b5b74b03d238e69b599c
pearljam2013-10-15d03t15.flac:0730f531aa434e2a3ec0cc008e43ee62
pearljam2013-10-15d03t16.flac:3a68241de4ac6a5c1606d014984e8331

length expanded size cdr WAVE problems fmt ratio filename
1:07.05 11830604 B --- -- ---xx flac 0.4257 pearljam2013-10-15d01t01.flac
5:05.57 53936108 B --- -- ---xx flac 0.4620 pearljam2013-10-15d01t02.flac
5:07.66 54310076 B --- -- ---xx flac 0.4545 pearljam2013-10-15d01t03.flac
3:36.73 38274140 B --- -- ---xx flac 0.4798 pearljam2013-10-15d01t04.flac
5:46.10 61057964 B --- -- ---xx flac 0.5207 pearljam2013-10-15d01t05.flac
2:50.03 29995100 B --- -- ---xx flac 0.5298 pearljam2013-10-15d01t06.flac
3:31.15 37255724 B --- -- ---xx flac 0.5136 pearljam2013-10-15d01t07.flac
1:42.63 18141020 B --- -- ---xx flac 0.4338 pearljam2013-10-15d01t08.flac
5:49.04 61573052 B --- -- ---xx flac 0.5073 pearljam2013-10-15d01t09.flac
7:30.16 79417676 B --- -- ---xx flac 0.5216 pearljam2013-10-15d01t10.flac
5:11.07 54876908 B --- -- ---xx flac 0.5002 pearljam2013-10-15d01t11.flac
4:07.12 43599068 B --- -- ---xx flac 0.5067 pearljam2013-10-15d01t12.flac
5:19.24 56328092 B --- -- ---xx flac 0.5078 pearljam2013-10-15d02t01.flac
2:29.30 26354204 B --- -- ---xx flac 0.5140 pearljam2013-10-15d02t02.flac
5:29.26 58096796 B --- -- ---xx flac 0.5265 pearljam2013-10-15d02t03.flac
2:14.49 23752892 B --- -- ---xx flac 0.3900 pearljam2013-10-15d02t04.flac
5:34.14 58950572 B --- -- ---xx flac 0.4896 pearljam2013-10-15d02t05.flac
3:06.34 32890412 B --- -- ---xx flac 0.5071 pearljam2013-10-15d02t06.flac
4:25.25 46804844 B --- -- ---xx flac 0.4950 pearljam2013-10-15d02t07.flac
1:33.01 16407596 B --- -- ---xx flac 0.3488 pearljam2013-10-15d02t08.flac
2:59.74 31749692 B --- -- ---xx flac 0.5066 pearljam2013-10-15d02t09.flac
4:09.30 43994204 B --- -- ---xx flac 0.4909 pearljam2013-10-15d02t10.flac
4:07.38 43660220 B --- -- ---xx flac 0.5077 pearljam2013-10-15d02t11.flac
2:24.73 25573340 B --- -- ---xx flac 0.3847 pearljam2013-10-15d02t12.flac
7:30.57 79514108 B --- -- ---xx flac 0.4794 pearljam2013-10-15d02t13.flac
2:25.42 25676828 B --- -- ---xx flac 0.3878 pearljam2013-10-15d03t01.flac
3:42.36 39245516 B --- -- ---xx flac 0.3947 pearljam2013-10-15d03t02.flac
2:23.07 25241708 B --- -- ---xx flac 0.3504 pearljam2013-10-15d03t03.flac
3:54.41 41374076 B --- -- ---xx flac 0.4572 pearljam2013-10-15d03t04.flac
4:18.73 45682940 B --- -- ---xx flac 0.3974 pearljam2013-10-15d03t05.flac
4:47.51 50746796 B --- -- ---xx flac 0.3779 pearljam2013-10-15d03t06.flac
2:55.35 30952364 B --- -- ---xx flac 0.5309 pearljam2013-10-15d03t07.flac
3:54.22 41329388 B --- -- ---xx flac 0.4889 pearljam2013-10-15d03t08.flac
9:08.73 96838940 B --- -- ---xx flac 0.5254 pearljam2013-10-15d03t09.flac
1:44.13 18376220 B --- -- ---xx flac 0.4295 pearljam2013-10-15d03t10.flac
3:37.01 38281196 B --- -- ---xx flac 0.4805 pearljam2013-10-15d03t11.flac
1:32.01 16231196 B --- -- ---xx flac 0.3941 pearljam2013-10-15d03t12.flac
7:51.15 83119724 B --- -- ---xx flac 0.4779 pearljam2013-10-15d03t13.flac
6:44.08 71284460 B --- -- ---xx flac 0.5221 pearljam2013-10-15d03t14.flac
3:48.07 40235708 B --- -- ---xx flac 0.5385 pearljam2013-10-15d03t15.flac
7:10.31 75924956 B --- -- ---xx flac 0.4245 pearljam2013-10-15d03t16.flac
172:47.62 1828886428 B 0.4788 (41 files)

×

Your Original Show Artwork

Your Name (required)

Your Email (required)

Your Artwork (8MB maximum)

Your Message

×