Pearl Jam Bootleg from 2006-05-22, Palace of Auburn Hills, Auburn Hills, Michigan, USA

View show information at pearljam.com

Setlist

  1. Long Road
  2. Corduroy
  3. World Wide Suicide
  4. Severed Hand
  5. Animal
  6. Marker In The Sand
  7. In Hiding
  8. Even Flow
  9. I Am Mine
  10. Army Reserve
  11. Insignificance
  12. Garden
  13. Wasted Reprise
  14. Life Wasted
  15. State Of Love And Trust
  16. Come Back
  17. Jeremy
  18. Rearviewmirror
  19. Man Of The Hour
  20. Elderly Woman Behind The Counter In A Small Town
  21. Nothingman
  22. Inside Job
  23. Alive
  24. Whipping
  25. Do The Evolution
  26. Comatose
  27. Given To Fly
  28. Why Go
  29. Porch
  30. Indifference
  31. Kick Out The Jams
  32. Yellow Ledbetter
  33. Gone

Pearl Jam is currently selling bootlegs to this show, so we can only accept fan bootlegs. Have one?

Comment, review, or request?

Your email address will not be published. Required fields are marked *

Original info file

Pearl Jam
The Palace
Auburn Hills, Michigan
5/22/2006

Source: DPA 4061'S>Sound Devices 722 (24/48)
FOB/DFC/KFC/ZFC/AARP 6' High
DSP: Sound Devices 722>Sound Forge 10.0>CD Wave>flac(16)
ID3 Tagged In Foobar 2000
Recorded By: Z-Man And Aaron
Seeded By: Z-Man

Disc I

01 Gone
02 Long Road
03 Corduroy
04 World Wide Suicide
05 Severed Hand
06 Animal
07 Marker aIn The Sand
08 In Hiding
09 Even Flow >
10 I Am Mine
11 Army Reserve
12 Insignificance
13 Garden
14 Wasted Reprise >
15 Life Wasted >
16 State Of Love And Trust
17 Come Back
18 Jeremy

Disc II

01 Rearviewmirror
Encore I:
02 Eddie Banter
03 Man Of The Hour
04 Elderly Woman Behind the Counter in a Small Town
05 Nothingman (Oops)
06 Nothingman
07 Inside Job (Cut)
Encore II:
08 Eddie Banter
09 Whipping >
10 Do The Evolution
11 Comatose
12 Given To Fly
13 Why Go
14 Porch
15 Indifference
16 Kick Out The Jams
17 Yellow Ledbetter >
18 Star Spangled Banner

We were told by security, NO recording allowed. We know Pearl Jam's
recording policy is weird, no mic stands or external mics..... I went back to my vehicle with Aaron.
I crotched my 722 and we used his DPA's, as they were a piece of cake to get in. We had to wear the hat.
You can hear the yahoos around us at different times during the show. We did have a battery issue at
some point near the end. We are missing half of Inside Job And All Of Alive Which Closed Encore I.
Kick Out The Jams was a tribute to the MC5. Eddie called out to Chris Chelios a few times as well.

pearljam2006-05-22d01t01.flac:f081a537aecbb7ac0e5c813357314fcf
pearljam2006-05-22d01t02.flac:d6279a79cdff7217c496086062315e8c
pearljam2006-05-22d01t03.flac:fb689e490098068bd0e2469096acda20
pearljam2006-05-22d01t04.flac:1fa22b0aac749918de1486aaf0dc942a
pearljam2006-05-22d01t05.flac:4f11bdc61a3c056e48a186faed8d9a86
pearljam2006-05-22d01t06.flac:6e92f8d3967b13555a66395dc901092a
pearljam2006-05-22d01t07.flac:80d4693a41e54cf1c813efc7fcbcf30a
pearljam2006-05-22d01t08.flac:0c07a1f0b523ed8654aac67eff42c25a
pearljam2006-05-22d01t09.flac:22cebb73740567d98aff9e3c8d77b5fa
pearljam2006-05-22d01t10.flac:14ff270ab540a6cf922a9be23bc0f9d7
pearljam2006-05-22d01t11.flac:48a83c7ae0b1835149e5f356dbaa5fde
pearljam2006-05-22d01t12.flac:9c214da41907727cd486a4b352fbe246
pearljam2006-05-22d01t13.flac:1b756b6ae49b5d4c7dc2796c5eb007ed
pearljam2006-05-22d01t14.flac:93b88af9b5310cec43a34870d163c517
pearljam2006-05-22d01t15.flac:1cbc648b92b7e369d7a919a328308935
pearljam2006-05-22d01t16.flac:a259c2635fae14c3f46c026440a661e4
pearljam2006-05-22d01t17.flac:9e029515817195ecb4f2fae6996dabc9
pearljam2006-05-22d01t18.flac:e9e10aa1136d84f92a7e0fed3ae8d598
pearljam2006-05-22d02t01.flac:1ce2395f033dab60ac3aaabfae343199
pearljam2006-05-22d02t02.flac:99cb00807e8a30cb6a00a8eee1bc954e
pearljam2006-05-22d02t03.flac:9e6b6c159a7d5079fa7d066c0eb994bf
pearljam2006-05-22d02t04.flac:752bac0d768e661715c5435cba7ebed7
pearljam2006-05-22d02t05.flac:368a3bfe331397e97b8505eb29a4d9f4
pearljam2006-05-22d02t06.flac:2643480a505fa3410dbf58e20e55954b
pearljam2006-05-22d02t07.flac:040998719c6c7462f896e54957b84305
pearljam2006-05-22d02t08.flac:53bea21a99e592eb327bc5aae8704ccc
pearljam2006-05-22d02t09.flac:12954e3371eacddc50448bbe22110a09
pearljam2006-05-22d02t10.flac:5f479e704b08d9c7dbcfc05a1bd97e5b
pearljam2006-05-22d02t11.flac:85139da7a7a31f4fc4c629f987cf351d
pearljam2006-05-22d02t12.flac:92a254f79a8fb03331b8ff95fa36a1c1
pearljam2006-05-22d02t13.flac:e5b11ff99199667257f52021a712fd75
pearljam2006-05-22d02t14.flac:8d2ecf1472044522aa2dc5fd75b6943e
pearljam2006-05-22d02t15.flac:48deb89f1ba7a35ef617f0a4759535a8
pearljam2006-05-22d02t16.flac:6865a0e26403111624755593b2208ca2
pearljam2006-05-22d02t17.flac:baac987b4d11569c0746a520bc528d9a
pearljam2006-05-22d02t18.flac:e39861d32e086f91f745c56a40570c5c

length expanded size cdr WAVE problems fmt ratio filename
4:30.00 47628044 B --- -- ---xx flac 0.4601 pearljam2006-05-22d01t01.flac
5:11.23 54914540 B --- -- ---xx flac 0.5217 pearljam2006-05-22d01t02.flac
4:55.25 52096844 B --- -- ---xx flac 0.6106 pearljam2006-05-22d01t03.flac
3:37.60 38419964 B --- -- ---xx flac 0.6125 pearljam2006-05-22d01t04.flac
3:57.02 41811548 B --- -- ---xx flac 0.5793 pearljam2006-05-22d01t05.flac
2:52.24 30397292 B --- -- ---xx flac 0.6067 pearljam2006-05-22d01t06.flac
5:42.58 60465260 B --- -- ---xx flac 0.5476 pearljam2006-05-22d01t07.flac
5:01.01 53098796 B --- -- ---xx flac 0.5568 pearljam2006-05-22d01t08.flac
7:07.18 75365180 B --- -- ---xx flac 0.5830 pearljam2006-05-22d01t09.flac
4:09.12 43951868 B --- -- ---xx flac 0.5430 pearljam2006-05-22d01t10.flac
4:14.58 44942060 B --- -- ---xx flac 0.5425 pearljam2006-05-22d01t11.flac
4:53.10 51708764 B --- -- ---xx flac 0.5359 pearljam2006-05-22d01t12.flac
3:52.29 40993052 B --- -- ---xx flac 0.5278 pearljam2006-05-22d01t13.flac
1:09.73 12343340 B --- -- ---xx flac 0.4464 pearljam2006-05-22d01t14.flac
3:56.37 41717468 B --- -- ---xx flac 0.5879 pearljam2006-05-22d01t15.flac
3:51.50 40866044 B --- -- ---xx flac 0.5565 pearljam2006-05-22d01t16.flac
5:29.60 58176764 B --- -- ---xx flac 0.4976 pearljam2006-05-22d01t17.flac
5:21.47 56734988 B --- -- ---xx flac 0.5576 pearljam2006-05-22d01t18.flac
10:25.20 110297084 B --- -- ---xx flac 0.5658 pearljam2006-05-22d02t01.flac
1:50.18 19446380 B --- -- ---xx flac 0.4482 pearljam2006-05-22d02t02.flac
4:32.28 48046700 B --- -- ---xx flac 0.4501 pearljam2006-05-22d02t03.flac
5:02.16 53310476 B --- -- ---xx flac 0.5104 pearljam2006-05-22d02t04.flac
1:40.53 17764700 B --- -- ---xx flac 0.4832 pearljam2006-05-22d02t05.flac
4:25.33 46823660 B --- -- ---xx flac 0.5051 pearljam2006-05-22d02t06.flac
1:48.44 19154732 B --- -- ---xx flac 0.4719 pearljam2006-05-22d02t07.flac
0:30.48 5404940 B --- -- ---xx flac 0.4046 pearljam2006-05-22d02t08.flac
2:25.06 25592156 B --- -- ---xx flac 0.5049 pearljam2006-05-22d02t09.flac
3:38.52 38577548 B --- -- ---xx flac 0.5070 pearljam2006-05-22d02t10.flac
2:25.01 25580396 B --- -- ---xx flac 0.5100 pearljam2006-05-22d02t11.flac
3:52.64 41075372 B --- -- ---xx flac 0.4772 pearljam2006-05-22d02t12.flac
3:29.15 36902924 B --- -- ---xx flac 0.5085 pearljam2006-05-22d02t13.flac
4:59.35 52825964 B --- -- ---xx flac 0.4823 pearljam2006-05-22d02t14.flac
6:27.40 68360924 B --- -- ---xx flac 0.4742 pearljam2006-05-22d02t15.flac
4:22.60 46357964 B --- -- ---xx flac 0.4906 pearljam2006-05-22d02t16.flac
4:19.34 45767612 B --- -- ---xx flac 0.4563 pearljam2006-05-22d02t17.flac
1:53.60 20074364 B --- -- ---xx flac 0.4171 pearljam2006-05-22d02t18.flac
148:03.14 1566995712 B 0.5254 (36 files)

×

Your Original Show Artwork

Your Name (required)

Your Email (required)

Your Artwork (8MB maximum)

Your Message

×